Welcome Гость | RSS
Main » 2010 » January » 25 » I Won't Tell You
19:43
I Won't Tell You

"I Won't Tell You" video-clip with excellent quality! Download.


General
Format : MPEG-4
Format profile : Base Media / Version 2
Codec ID : mp42

File size : 234 MiB
Duration : 3mn 57s

Overall bit rate : 8 275 Kbps
Encoded date : UTC 2010-01-06 12:03:29
Tagged date : UTC 2010-01-06 12:03:29
Video #1
Format : AVC
Format/Info : Advanced Video Codec
Format profile : Main@L3.2
Format settings, CABAC : Yes
Format settings, ReFrames : 4 frames
Codec ID : avc1
Codec ID/Info : Advanced Video Coding
Duration : 3mn 57s
Bit rate mode : Variable
Bit rate : 8 079 Kbps
Width : 1 280 pixels
Height : 720 pixels
Display aspect ratio : 16/9
Frame rate mode : Constant
Frame rate : 25.000 fps
Standard : NTSC
Resolution : 24 bits
Colorimetry : 4:2:0
Scan type : Progressive
Bits/(Pixel*Frame) : 0.351
Stream size : 228 MiB (98%)
Language : English
Encoded date : UTC 2010-01-06 12:03:30
Tagged date : UTC 2010-01-06 12:03:30
Audio #2
Format : AAC
Format/Info : Advanced Audio Codec
Format version : Version 4
Format profile : LC
Format settings, SBR : No
Codec ID : 40
Duration : 3mn 57s
Bit rate mode : Variable
Bit rate : 192 Kbps
Maximum bit rate : 293 Kbps
Channel(s) : 2 channels
Channel positions : L R
Sampling rate : 48.0 KHz
Resolution : 16 bits
Stream size : 5.35 MiB (2%)
Language : English
Encoded date : UTC 2010-01-06 12:03:30
Tagged date : UTC 2010-01-06 12:03:30
Category: Releases | Views: 426 | Added by: Italiana | Rating: 0.0/0
Total comments: 0
Only registered users can add comments.
[ Registration | Login ]




News [37]
Interviews [97]
Photos [79]
Videos [80]
Tour [20]
Releases [24]
Audio [14]
Press [13]
Rezophonic [17]

«  January 2010  »
SuMoTuWeThFrSa
     12
3456789
10111213141516
17181920212223
24252627282930
31





   Myspace:







Total online: 1
Guests: 1
Users: 0